<svg xmlns="http://www.w3.org/2000/svg"><defs><font id="revicons" horiz-adv-x="1000"><font-face font-family="revicons" font-weight="400" ascent="850" descent="-150"/><glyph glyph-name="search" unicode="" d="M643 386q0 103-74 176t-176 74-177-74-73-176 73-177 177-73 176 73 74 177zM929-79q0-29-22-50t-50-21q-30 0-50 21L616 62Q516-7 393-7q-80 0-153 31t-125 84-84 125T0 386t31 152 84 126 125 84 153 31 152-31 126-84 84-126 31-152q0-123-69-223L908-28q21-21 21-51z" horiz-adv-x="928.6"/><glyph glyph-name="pencil-1" unicode="" d="M795 731c50-46 44-118-4-165l-46-46s35 53-37 123c-64 64-124 37-124 37l49 48c43 45 120 45 162 3zm-89-250L214-12 4-63l-4 4 55 210 493 490c8 2 30 9 60 2L85 121 70 66l60-60 56 15 25 24 3 56-40 40 479 479 15-15c71-70 38-124 38-124z" horiz-adv-x="830"/><glyph glyph-name="picture-1" unicode="" d="M357 529q0-45-31-76t-76-32-76 32-31 76 31 75 76 32 76-32 31-75zm572-215V64H143v107l178 179 90-89 285 285zm53 393H89q-7 0-12-5t-6-13V11q0-8 6-13t12-5h893q7 0 13 5t5 13v678q0 7-5 13t-13 5zm89-18V11q0-37-26-63t-63-27H89q-36 0-63 27T0 11v678q0 37 26 63t63 27h893q37 0 63-27t26-63z" horiz-adv-x="1071.4"/><glyph glyph-name="cancel" unicode="" d="M724 112q0-22-15-38L633-2q-16-15-38-15T557-2L393 163 229-2q-16-15-38-15T153-2L77 74q-16 16-16 38t16 38l164 164L77 478q-16 16-16 38t16 38l76 76q16 16 38 16t38-16l164-164 164 164q16 16 38 16t38-16l76-76q15-15 15-38t-15-38L545 314l164-164q15-15 15-38z" horiz-adv-x="785.7"/><glyph glyph-name="info-circled" unicode="" d="M571 82v89q0 8-5 13t-12 5h-54v286q0 8-5 13t-13 5H304q-8 0-13-5t-5-13v-89q0-8 5-13t13-5h53V189h-53q-8 0-13-5t-5-13V82q0-8 5-13t13-5h250q7 0 12 5t5 13zm-71 500v89q0 8-5 13t-13 5H375q-8 0-13-5t-5-13v-89q0-8 5-13t13-5h107q8 0 13 5t5 13zm357-232q0-117-57-215T644-21 429-79 213-21 58 135 0 350t58 215 155 156 216 58 215-58 156-156 57-215z" horiz-adv-x="857.1"/><glyph glyph-name="trash" unicode="" d="M286 439V118q0-8-5-13t-13-5h-36q-8 0-13 5t-5 13v321q0 8 5 13t13 5h36q8 0 13-5t5-13zm143 0V118q0-8-5-13t-13-5h-36q-8 0-13 5t-5 13v321q0 8 5 13t13 5h36q8 0 13-5t5-13zm142 0V118q0-8-5-13t-12-5h-36q-8 0-13 5t-5 13v321q0 8 5 13t13 5h36q7 0 12-5t5-13zm72-404v529H143V35q0-12 4-22t8-15 6-5h464q2 0 6 5t8 15 4 22zM268 636h250l-27 65q-4 5-9 6H305q-6-1-10-6zm518-18v-36q0-8-5-13t-13-5h-54V35q0-46-26-80t-63-34H161q-37 0-63 33T71 33v531H18q-8 0-13 5t-5 13v36q0 8 5 13t13 5h172l39 93q9 21 31 35t44 15h178q22 0 44-15t30-35l39-93h173q8 0 13-5t5-13z" horiz-adv-x="785.7"/><glyph glyph-name="left-dir" unicode="" d="M357 600V100q0-14-10-25t-26-11-25 11L46 325q-10 11-10 25t10 25l250 250q11 11 25 11t26-11 10-25z" horiz-adv-x="357.1"/><glyph glyph-name="right-dir" unicode="" d="M321 350q0-14-10-25L61 75Q50 64 36 64T11 75 0 100v500q0 15 11 25t25 11 25-11l250-250q10-10 10-25z" horiz-adv-x="357.1"/><glyph glyph-name="down-open" unicode="" d="M899 457q0-29-21-50L515 44q-21-22-51-22t-50 22L51 407q-21 20-21 50t21 51l41 42q22 20 51 20t50-20l271-271 271 271q21 20 51 20 29 0 50-20l42-42q21-22 21-51z" horiz-adv-x="928.6"/><glyph glyph-name="left-open" unicode="" d="M414-28L50 336q-20 20-20 50t20 51l364 363q21 20 51 20t50-20l42-42q21-21 21-51t-21-50L286 386l271-271q21-21 21-51t-21-50l-42-42q-21-20-50-20t-51 20z" horiz-adv-x="642.9"/><glyph glyph-name="right-open" unicode="" d="M613 386q0-29-20-51L229-28q-21-21-50-21t-51 21L86 14Q65 35 65 64q0 30 21 51l271 271L86 656q-21 22-21 51 0 30 21 50l42 42q20 21 51 21t50-21l364-363q20-21 20-50z" horiz-adv-x="642.9"/><glyph glyph-name="angle-left" unicode="" d="M350 546q0-7-6-12L125 314 344 95q6-6 6-13t-6-13l-28-28q-5-5-12-5t-13 5L31 301q-6 6-6 13t6 13l260 260q5 6 13 6t12-6l28-28q6-5 6-13z" horiz-adv-x="357.1"/><glyph glyph-name="angle-right" unicode="" d="M332 314q0-7-6-13L66 41q-5-5-12-5t-13 5L13 69q-6 6-6 13t6 13l219 219L13 534q-6 5-6 12t6 13l28 28q5 6 13 6t12-6l260-260q6-5 6-13z" horiz-adv-x="357.1"/><glyph glyph-name="left-big" unicode="" d="M857 350v-71q0-30-18-51t-47-21H399L563 43q21-20 21-50t-21-50l-42-43q-21-20-51-20-29 0-50 20L56 264q-20 21-20 50t20 51l364 363q21 21 50 21t51-21l42-42q21-21 21-50t-21-51L399 421h393q29 0 47-20t18-51z" horiz-adv-x="857.1"/><glyph glyph-name="right-big" unicode="" d="M821 314q0-30-20-50L438-100q-22-20-51-20t-50 20l-42 42q-22 21-22 51t22 51l163 163H65q-29 0-47 21T0 279v71q0 30 18 51t47 20h393L295 585q-22 21-22 51t22 50l42 42q21 21 50 21t51-21l363-363q20-20 20-51z" horiz-adv-x="857.1"/><glyph glyph-name="magic" unicode="" d="M664 526l164 163-60 60-164-164zm249 163q0-15-10-25L186-54q-10-10-25-10t-25 10L25 57Q15 67 15 82t10 25l718 718q10 10 25 10t25-10l110-111q10-10 10-25zM160 795l54-16-54-17-17-55-17 55-55 17 55 16 17 55zm195-90l109-34-109-33-34-109-33 109-109 33 109 34 33 109zm519-267l55-17-55-16-17-55-17 55-54 16 54 17 17 55zM517 795l54-16-54-17-17-55-17 55-54 17 54 16 17 55z" horiz-adv-x="928.6"/><glyph glyph-name="picture" unicode="" d="M856 518H756L632 668 418 518H238q-52 0-90-39t-38-91V228L2 524q-10 38 22 52l680 248q36 10 50-24zm106-90q16 0 27-12t11-28V-84q0-16-11-28t-27-12H238q-16 0-27 12t-11 28v472q0 16 11 28t27 12h724zM906-24v162l-72 160-166-60-130-132-138 170-92-214v-86h598z" horiz-adv-x="1000"/><glyph glyph-name="export" unicode="" d="M750 60v56l100 82V10q0-20-15-35t-35-15H50q-20 0-35 15T0 10v550q0 22 14 36t36 14h288q-32-24-59-49t-39-39l-10-12H100V60h650zm-82 348q-166 0-242-41T266 186q0 8 1 22t9 56 22 79 44 83 70 79 107 56 149 23v156l332-250-332-260v178z" horiz-adv-x="1000"/><glyph glyph-name="cog" unicode="" d="M760 350q0-72 80-122-12-40-34-82-70 18-136-44-54-58-34-136-40-20-84-36-46 82-132 82T288-70q-44 16-84 36 20 80-34 136-54 54-136 34-14 26-34 82 82 52 82 132 0 72-82 124 20 56 34 82 74-18 136 44 54 56 34 136 42 22 84 34 46-80 132-80t132 80q42-12 84-34-20-78 34-136 66-62 136-44 22-42 34-82-80-50-80-124zM420 168q76 0 129 53t53 129-53 130-129 54-129-54-53-130 53-129 129-53z" horiz-adv-x="840"/><glyph glyph-name="login" unicode="" d="M800 800q42 0 71-29t29-71V0q0-40-29-70t-71-30H350q-40 0-69 30T252 0v100h98V0h450v700H350V550h-98v150q0 42 29 71t69 29h450zM450 130v120H0v150h450v120l200-194z" horiz-adv-x="900"/><glyph glyph-name="logout" unicode="" d="M502 0v100h98V0q0-40-29-70t-71-30H100q-40 0-70 30T0 0v700q0 42 30 71t70 29h400q42 0 71-29t29-71V550h-98v150H100V0h402zm398 326L702 130v120H252v150h450v120z" horiz-adv-x="900"/><glyph glyph-name="video" unicode="" d="M214-43v72q0 14-10 25t-25 10h-72q-14 0-25-10T71 29v-72q0-14 11-25t25-11h72q14 0 25 11t10 25zm0 214v72q0 14-10 25t-25 11h-72q-14 0-25-11t-11-25v-72q0-14 11-25t25-10h72q14 0 25 10t10 25zm0 215v71q0 15-10 25t-25 11h-72q-14 0-25-11t-11-25v-71q0-15 11-25t25-11h72q14 0 25 11t10 25zM786-43v286q0 14-11 25t-25 11H321q-14 0-25-11t-10-25V-43q0-14 10-25t25-11h429q15 0 25 11t11 25zM214 600v71q0 15-10 26t-25 10h-72q-14 0-25-10t-11-26v-71q0-15 11-25t25-11h72q14 0 25 11t10 25zm786-643v72q0 14-11 25t-25 10h-71q-15 0-25-10t-11-25v-72q0-14 11-25t25-11h71q15 0 25 11t11 25zM786 386v285q0 15-11 26t-25 10H321q-14 0-25-10t-10-26V386q0-15 10-25t25-11h429q15 0 25 11t11 25zm214-215v72q0 14-11 25t-25 11h-71q-15 0-25-11t-11-25v-72q0-14 11-25t25-10h71q15 0 25 10t11 25zm0 215v71q0 15-11 25t-25 11h-71q-15 0-25-11t-11-25v-71q0-15 11-25t25-11h71q15 0 25 11t11 25zm0 214v71q0 15-11 26t-25 10h-71q-15 0-25-10t-11-26v-71q0-15 11-25t25-11h71q15 0 25 11t11 25zm71 89V-61q0-37-26-63t-63-26H89q-36 0-63 26T0-61v750q0 37 26 63t63 27h893q37 0 63-27t26-63z" horiz-adv-x="1071.4"/><glyph glyph-name="arrow-combo" unicode="" d="M230 850l230-364H0zm0-1000L0 216h460z" horiz-adv-x="460"/><glyph glyph-name="left-open-1" unicode="" d="M242 626q14 16 39 16t41-16q38-36 0-80L136 350l186-194q38-44 0-80-16-16-40-16t-40 16L16 312Q0 328 0 350q0 24 16 40 206 214 226 236z" horiz-adv-x="341"/><glyph glyph-name="right-open-1" unicode="" d="M98 626l226-236q16-16 16-40 0-22-16-38L98 76Q82 60 58 60T18 76q-36 36 0 80l186 194L18 546q-36 44 0 80 16 16 41 16t39-16z" horiz-adv-x="340"/><glyph glyph-name="left-open-mini" unicode="" d="M252 180q26-26 0-48-26-26-48 0L12 326q-24 24 0 50l192 194q22 26 48 0 26-22 0-48L96 350z" horiz-adv-x="265"/><glyph glyph-name="right-open-mini" unicode="" d="M13 180l158 170L13 522q-26 26 0 48 26 26 48 0l192-194q24-26 0-50L61 132q-22-26-48 0-26 22 0 48z" horiz-adv-x="265"/><glyph glyph-name="left-open-big" unicode="" d="M452-20q26-26 0-48-26-26-48 0L12 326q-24 24 0 50l392 394q22 26 48 0 26-22 0-48L94 350z" horiz-adv-x="465"/><glyph glyph-name="right-open-big" unicode="" d="M13-20l358 370L13 722q-26 26 0 48 26 26 48 0l392-394q24-26 0-50L61-68q-22-26-48 0-26 22 0 48z" horiz-adv-x="465"/><glyph glyph-name="left" unicode="" d="M378 20L0 350l378 330V490h352V212H378V20z" horiz-adv-x="730"/><glyph glyph-name="right" unicode="" d="M350 680l380-330L350 20v192H0v278h350v190z" horiz-adv-x="730"/><glyph glyph-name="ccw" unicode="" d="M532 736q170 0 289-120t119-290T821 36 532-84Q390-84 280 4l70 74q84-60 182-60 126 0 216 90t90 218-90 218-216 90q-124 0-214-87t-92-211h142L184 132 0 336h124q2 166 122 283t286 117z" horiz-adv-x="940"/><glyph glyph-name="arrows-ccw" unicode="" d="M186 140l116 116V-36L26-20l88 86Q-2 188 0 356t120 288q100 100 240 116l4-102q-100-16-172-88-88-88-90-213t84-217zm332 598l276-16-88-86q116-122 114-290T700 58Q604-40 460-60l-2 104q98 16 170 88 88 88 90 213t-84 217L520 446z" horiz-adv-x="820"/><glyph glyph-name="palette" unicode="" d="M857 622q72-48 101-110t20-104-35-48q-16-4-54 10t-80 10-80-46q-30-46-21-75t34-65 23-50q-2-26-36-63T603 7 387-30Q201-30 96 71T1 316q8 118 104 235t216 151q290 84 536-80zM539 156q30 0 52 22t22 54-22 53-52 21q-32 0-54-21t-22-53 22-54 54-22z" horiz-adv-x="980"/><glyph glyph-name="list-add" unicode="" d="M350 400q22 0 36-15t14-35-15-35-35-15H50q-20 0-35 15T0 350t14 35 36 15h300zm0-200q22 0 36-15t14-35-15-35-35-15H50q-20 0-35 15T0 150t14 35 36 15h300zm620 200q30 0 30-50t-30-50H800V130q0-30-50-30t-50 30v170H536q-30 0-30 50t30 50h164v170q0 30 50 30t50-30V400h170zM350 600q22 0 36-15t14-35-15-35-35-15H50q-20 0-35 15T0 550t14 35 36 15h300z" horiz-adv-x="1000"/><glyph glyph-name="doc" unicode="" d="M818 595q16-16 16-36V38q0-65-46-111t-110-46H156q-65 0-110 46T0 38v625q0 65 46 110t110 46h417q22 0 37-15zm-110-36L573 693v-56q0-32 23-55t55-23h57zM678-15q21 0 36 16t15 37v469h-78q-53 0-92 38t-38 92v78H156q-21 0-37-15t-15-37V38q0-21 15-37t37-16h522z" horiz-adv-x="834"/><glyph glyph-name="left-open-outline" unicode="" d="M638 91q0-64-47-111T481-66q-65 0-110 45L0 351l371 371q44 44 111 44t111-44q45-45 45-111 0-65-45-110L443 351l150-150q45-45 45-110zM148 351L445 53q15-15 37-15t37 15 15 38q0 21-15 36L295 351l224 223q15 15 15 37t-15 37-37 15-37-15z" horiz-adv-x="638"/><glyph glyph-name="left-open-2" unicode="" d="M481 684q32-31 32-74t-32-74L295 350l186-186q32-31 32-74t-32-74-73-31-74 31L0 350l334 334q30 31 74 31t73-31z" horiz-adv-x="513"/><glyph glyph-name="right-open-outline" unicode="" d="M156-66Q93-66 46-20T0 91t46 110l150 150L46 501Q0 547 0 611q0 65 46 111 44 44 110 44t110-44l372-371L266-21q-45-45-110-45zm0 729q-21 0-37-16t-15-36q0-20 16-37l223-223-223-224q-16-16-16-36 0-22 16-38 15-15 36-15t37 15l297 298-297 297q-15 15-37 15z" horiz-adv-x="638"/><glyph glyph-name="right-open-2" unicode="" d="M31 684q30 31 74 31t74-31l335-334L179 16q-31-31-74-31T31 16 0 90t31 74l188 186L31 536Q0 568 0 610t31 74z" horiz-adv-x="514"/><glyph glyph-name="equalizer" unicode="" d="M576 239V127h-55V-40q0-23-17-40t-39-17-39 17-17 40v167h-56v112h56v503q0 24 17 39t38 16q24 0 41-16t16-39V239h55zm335 335V462h-55V-40q0-23-16-40t-41-17q-23 0-39 17t-16 40v502h-56v112h56v168q0 24 16 39t39 16 41-16 16-39V574h55zM241 462V351h-55V-40q0-23-16-40t-40-17q-23 0-39 17T74-40v391H18v111h56v280q0 24 16 39t40 16 40-16 16-39V462h55z" horiz-adv-x="928"/><glyph glyph-name="layers-alt" unicode="" d="M18 127L464 16l447 111V16L464-97 18 16v111zm0 224l446-112 447 112V239L464 127 18 239v112zm0 223l446-112 447 112V462L464 351 18 462v112zm0 223l446-112 447 112V685L464 574 18 685v112z" horiz-adv-x="928"/><glyph glyph-name="popup" unicode="" d="M700 750q42 0 71-29t29-71V250q0-40-29-70t-71-30H300q-40 0-70 30t-30 70v402q0 40 29 69t71 29h400zm0-500v400H300V250h400zM100 350V50h300V-50H100q-40 0-70 30T0 50v300h100z" horiz-adv-x="800"/></font>
</defs>
</svg>
